<?xml version="1.0" standalone="no"?>
<!DOCTYPE svg PUBLIC "-//W3C//DTD SVG 1.1//EN" "http://www.w3.org/Graphics/SVG/1.1/DTD/svg11.dtd" >
<svg xmlns="http://www.w3.org/2000/svg">
<metadata>Generated by IcoMoon</metadata>
<defs>
<font id="icomoon" horiz-adv-x="1024">
<font-face units-per-em="1024" ascent="960" descent="-64" />
<missing-glyph horiz-adv-x="1024" />
<glyph unicode="&#x20;" horiz-adv-x="512" d="" />
<glyph unicode="&#xe600;" glyph-name="cart" d="M726 170.667c46 0 84-40 84-86s-38-84-84-84-86 38-86 84 40 86 86 86zM42 852.667h140l40-84h632c24 0 42-20 42-44 0-8-2-14-6-20l-152-276c-14-26-42-44-74-44h-318l-38-70-2-6c0-6 4-10 10-10h494v-86h-512c-46 0-84 40-84 86 0 14 4 28 10 40l58 106-154 324h-86v84zM298 170.667c46 0 86-40 86-86s-40-84-86-84-84 38-84 84 38 86 84 86z" />
<glyph unicode="&#xe601;" glyph-name="close" horiz-adv-x="805" d="M741.714 195.428c0-14.286-5.714-28.571-16-38.857l-77.714-77.714c-10.286-10.286-24.571-16-38.857-16s-28.571 5.714-38.857 16l-168 168-168-168c-10.286-10.286-24.571-16-38.857-16s-28.571 5.714-38.857 16l-77.714 77.714c-10.286 10.286-16 24.571-16 38.857s5.714 28.571 16 38.857l168 168-168 168c-10.286 10.286-16 24.571-16 38.857s5.714 28.571 16 38.857l77.714 77.714c10.286 10.286 24.571 16 38.857 16s28.571-5.714 38.857-16l168-168 168 168c10.286 10.286 24.571 16 38.857 16s28.571-5.714 38.857-16l77.714-77.714c10.286-10.286 16-24.571 16-38.857s-5.714-28.571-16-38.857l-168-168 168-168c10.286-10.286 16-24.571 16-38.857z" />
<glyph unicode="&#xe900;" glyph-name="phone" horiz-adv-x="800" d="M748.8 288l-54.4 54.4c-32 32-83.2 32-115.2 0l-28.8-28.8c-38.4-38.4-102.4-38.4-144 0l-118.4 118.4c-38.4 38.4-38.4 102.4 0 144l28.8 28.8c32 32 32 83.2 0 115.2l-54.4 54.4c-32 32-83.2 32-115.2 0v0c-115.2-118.4-115.2-310.4 3.2-428.8 41.6-41.6 128-128 172.8-172.8 118.4-118.4 310.4-118.4 428.8 0v0c28.8 32 28.8 83.2-3.2 115.2z" />
<glyph unicode="&#xe901;" glyph-name="search" horiz-adv-x="800" d="M323.2 224c-156.8 0-284.8 128-284.8 284.8 3.2 67.2 25.6 134.4 73.6 185.6 54.4 60.8 131.2 96 214.4 96 156.8 0 284.8-128 284.8-284.8s-131.2-281.6-288-281.6zM323.2 716.8c-60.8 0-118.4-25.6-160-70.4-35.2-38.4-54.4-89.6-54.4-140.8 0-118.4 96-211.2 211.2-211.2s211.2 96 211.2 211.2-89.6 211.2-208 211.2zM729.6 64c-9.6 0-19.2 3.2-25.6 9.6l-179.2 179.2c-12.8 12.8-12.8 35.2 0 51.2 12.8 12.8 35.2 12.8 51.2 0l179.2-179.2c12.8-12.8 12.8-35.2 0-51.2-6.4-6.4-16-9.6-25.6-9.6z" />
<glyph unicode="&#xe902;" glyph-name="more" d="M512-64c-282.784 0-512 229.248-512 512 0 282.784 229.216 512 512 512 282.752 0 512-229.216 512-512 0-282.752-229.248-512-512-512zM667.488 468.352h-133.472v135.584h-45.024v-135.584h-132.8v-43.712h132.8v-134.944h45.024v134.944h133.472v43.712z" />
<glyph unicode="&#xe903;" glyph-name="twitter" d="M921.6 950.857h-819.2c-56.32 0-102.4-46.080-102.4-102.4v-819.2c0-56.32 46.080-102.4 102.4-102.4h819.2c56.32 0 102.4 46.080 102.4 102.4v819.2c0 56.32-46.080 102.4-102.4 102.4zM803.84 577.097c-5.12-235.52-153.6-399.36-378.88-409.6-92.16-5.12-158.72 25.6-220.16 61.44 66.56-10.242 153.6 15.358 199.68 56.32-66.56 5.12-107.52 40.96-128 97.28 20.48-5.12 40.96 0 56.32 0-61.44 20.48-102.4 56.32-107.52 138.24 15.36-10.24 35.84-15.36 56.32-15.36-46.080 25.6-76.8 122.88-40.96 184.32 66.56-71.68 148.48-133.12 281.6-143.36-35.84 143.36 158.722 220.16 235.522 122.88 35.84 5.12 61.44 20.48 87.040 30.72-10.24-35.84-30.72-56.32-56.32-76.8 25.6 5.12 51.2 10.24 71.68 20.48-5.122-25.6-30.722-46.080-56.322-66.56z" />
<glyph unicode="&#xe904;" glyph-name="instagram" d="M921.6 950.857h-819.2c-56.32 0-102.4-46.080-102.4-102.4v-819.2c0-56.32 46.080-102.4 102.4-102.4h819.2c56.32 0 102.4 46.080 102.4 102.4v819.2c0 56.32-46.080 102.4-102.4 102.4zM512 643.657c112.64 0 204.8-92.16 204.8-204.8s-92.16-204.8-204.8-204.8c-112.64 0-204.8 92.16-204.8 204.8s92.16 204.8 204.8 204.8zM128 29.257c-15.36 0-25.6 10.24-25.6 25.6v435.2h107.52c-5.12-15.36-5.12-35.84-5.12-51.2 0-168.96 138.24-307.2 307.2-307.2s307.2 138.24 307.2 307.2c0 15.36 0 35.84-5.12 51.2h107.52v-435.2c0-15.36-10.24-25.6-25.6-25.6h-768zM921.6 720.457c0-15.36-10.24-25.6-25.6-25.6h-102.4c-15.36 0-25.6 10.24-25.6 25.6v102.4c0 15.36 10.24 25.6 25.6 25.6h102.4c15.36 0 25.6-10.24 25.6-25.6v-102.4z" />
<glyph unicode="&#xe905;" glyph-name="facebook" d="M921.6 950.857h-819.2c-56.32 0-102.4-46.080-102.4-102.4v-819.2c0-56.32 46.080-102.4 102.4-102.4h819.2c56.32 0 102.4 46.080 102.4 102.4v819.2c0 56.32-46.080 102.4-102.4 102.4zM870.4 848.457v-153.6h-102.4c-30.72 0-51.2-20.48-51.2-51.2v-102.4h153.6v-153.6h-153.6v-358.4h-153.6v358.4h-102.4v153.6h102.4v128c0 97.28 81.92 179.2 179.2 179.2h128z" />
<glyph unicode="&#xe906;" glyph-name="mail" d="M832-64h-640c-106.069 0-192 85.931-192 192v640c0 106.069 85.931 192 192 192h640c106.069 0 192-85.931 192-192v-640c0-106.069-85.931-192-192-192zM794.837 647.125c-10.581 9.515-23.083 14.251-37.504 14.251h-490.667c-17.109 0-30.293-5.248-39.509-15.744s-13.824-23.637-13.824-39.424c0-12.715 6.101-26.496 18.347-41.344 12.203-14.891 25.216-26.539 38.997-35.029 7.552-4.821 30.336-19.243 68.309-43.179 38.016-23.936 67.115-42.411 87.339-55.339 2.219-1.408 6.955-4.48 14.165-9.216 7.211-4.779 13.227-8.619 18.005-11.52 4.779-2.944 10.539-6.229 17.323-9.856s13.184-6.357 19.157-8.192c6.016-1.792 11.563-2.731 16.683-2.731h0.683c5.12 0 10.667 0.939 16.683 2.731 5.973 1.835 12.373 4.565 19.157 8.192s12.544 6.912 17.323 9.856c4.779 2.901 10.752 6.741 18.005 11.52 7.211 4.736 11.947 7.808 14.165 9.216 20.437 12.971 72.448 45.781 155.989 98.517 16.213 10.325 29.781 22.741 40.661 37.291s16.341 29.781 16.341 45.781c0 13.312-5.291 24.747-15.829 34.219zM810.667 523.776c-9.557-9.685-20.651-18.475-33.323-26.368-72.917-44.843-128.256-79.701-166.016-104.576-12.672-8.491-22.955-15.104-30.848-19.84s-18.347-9.6-31.488-14.549c-13.099-4.949-25.301-7.424-36.651-7.424h-0.683c-11.349 0-23.552 2.475-36.651 7.424-13.141 4.949-23.637 9.813-31.531 14.549-7.851 4.736-18.133 11.349-30.805 19.84-29.995 20.011-85.248 54.869-165.675 104.576-12.672 7.68-23.893 16.469-33.664 26.368v-240.64c0-13.355 5.205-24.789 15.659-34.261 10.453-9.515 22.997-14.251 37.675-14.251h490.667c14.677 0 27.221 4.736 37.675 14.251s15.659 20.907 15.659 34.261v240.64z" />
<glyph unicode="&#xe907;" glyph-name="arrowR" horiz-adv-x="656" d="M167.81-56.595l481.052 490.502c7.65 7.814 7.65 21.682 0 29.496l-481.093 490.543c-3.805 3.886-9 6.095-14.441 6.095-5.4 0-10.596-2.209-14.441-6.095l-132.71-135.328c-4.009-4.091-6.014-9.409-6.014-14.727 0-5.359 2.005-10.677 6.014-14.768l333.901-340.447-333.901-340.488c-7.691-7.814-7.65-21.641 0-29.455l132.71-135.328c8.018-8.141 20.946-8.141 28.923 0z" />
<glyph unicode="&#xe908;" glyph-name="arrowL" horiz-adv-x="656" d="M488.19 952.595l-481.052-490.502c-7.65-7.814-7.65-21.682 0-29.496l481.093-490.543c3.805-3.886 9-6.095 14.441-6.095 5.4 0 10.596 2.209 14.441 6.095l132.71 135.328c4.009 4.091 6.014 9.409 6.014 14.727 0 5.359-2.005 10.677-6.014 14.768l-333.901 340.447 333.901 340.488c7.691 7.814 7.65 21.641 0 29.455l-132.71 135.328c-8.018 8.141-20.946 8.141-28.923 0z" />
<glyph unicode="&#xe909;" glyph-name="home" horiz-adv-x="1026" d="M1003.428 497.607l-436.692 441.65c-29.747 30.089-78.015 30.089-107.819 0l-436.635-441.65c-21.769-22.054-28.323-55.22-16.526-84.056 11.796-28.778 39.606-47.584 70.436-47.584h59.153v-330.183c0-55.106 44.165-99.727 98.588-99.727h557.789c54.48 0 98.645 44.621 98.645 99.727v330.183h59.153c30.83 0 58.64 18.806 70.436 47.584 11.796 28.835 5.243 62.002-16.526 84.056zM628.054 80.633h-230.399v131.412c0 64.338 51.573 116.538 115.171 116.538 63.655 0 115.228-52.2 115.228-116.538v-131.412z" />
<glyph unicode="&#xe90a;" glyph-name="trash" horiz-adv-x="723" d="M0 773.331v101.557c0 17.89 13.673 32.346 30.6 32.346h210.221v41.984c0 5.963 4.578 10.782 10.24 10.782h220.702c5.662 0 10.24-4.819 10.24-10.782v-41.984h210.221c16.866 0 30.6-14.456 30.6-32.346v-101.557h-722.824zM638.012-14.607c-1.144-27.588-22.648-49.393-48.791-49.393h-455.62c-26.202 0-47.706 21.805-48.791 49.393l-32.527 725.293h618.255l-32.527-725.293zM258.349 530.522c0 11.565-8.915 20.902-19.817 20.902h-31.744c-10.903 0-19.817-9.336-19.817-20.902v-414.359c0-11.565 8.915-20.962 19.817-20.962h31.744c10.903 0 19.817 9.397 19.817 20.962v414.359zM397.071 530.522c0 11.565-8.855 20.902-19.817 20.902h-31.684c-10.963 0-19.817-9.336-19.817-20.902v-414.359c0-11.565 8.855-20.962 19.817-20.962h31.684c10.963 0 19.817 9.397 19.817 20.962v414.359zM535.853 530.522c0 11.565-8.915 20.902-19.817 20.902h-31.744c-10.963 0-19.817-9.336-19.817-20.902v-414.359c0-11.565 8.855-20.962 19.817-20.962h31.744c10.903 0 19.817 9.397 19.817 20.962v414.359z" />
<glyph unicode="&#xe90b;" glyph-name="triangle" horiz-adv-x="899" d="M899.229 448.064l-898.843-512.385v1024.771l898.843-512.385z" />
<glyph unicode="&#xe90c;" glyph-name="pinterest" d="M921.6 950.857h-819.2c-56.32 0-102.4-46.080-102.4-102.4v-819.2c0-56.32 46.080-102.4 102.4-102.4h819.2c56.32 0 102.4 46.080 102.4 102.4v819.2c0 56.32-46.080 102.4-102.4 102.4zM563.2 223.817c-40.96 0-81.92 15.358-107.52 46.078l-51.2-163.84-5.12-10.24c-10.24-15.36-25.6-25.6-46.080-25.6-30.72 0-56.32 25.6-56.32 56.32 0 5.12 0 5.12 0 5.12v0l5.12 10.24 92.16 286.722c0 0-10.24 30.72-10.24 76.8 0 87.040 46.080 112.64 87.040 112.64 35.84 0 71.68-15.36 71.68-66.56 0-66.56-46.080-102.4-46.080-153.6 0-35.84 30.72-66.558 66.56-66.558 117.76 0 163.84 92.158 163.84 174.080 0 112.64-97.278 204.8-215.040 204.8-117.76 0-215.040-92.16-215.040-204.8 0-35.84 10.24-66.56 25.6-97.28 5.12-10.242 5.12-15.36 5.12-25.6 0-30.72-20.48-51.2-51.2-51.2-20.48 0-35.84 10.24-46.080 25.6-25.6 46.080-40.96 97.28-40.96 153.6 0 168.96 143.36 307.2 317.44 307.2s317.44-138.24 317.44-307.2c5.12-143.362-76.8-286.722-261.12-286.722z" />
<glyph unicode="&#xe90d;" glyph-name="rouleau" horiz-adv-x="1600" d="M52.864 446.336c6.88 9.984 14.432 19.104 22.24 27.84 0.448 0.544 0.544 1.184 1.088 1.664l4.928 4.864c4.128 4.288 8.384 8.48 12.736 12.448l404.128 396.928c0.864 0.832 1.984 1.184 2.88 1.888 48.48 42.592 113.376 67.616 179.36 67.872 0.384 0 0.672 0 1.024 0 70.784 0 134.368-27.552 179.104-77.6 45.472-50.784 68.32-121.312 62.848-193.536-3.904-51.968-22.624-100.608-52.64-139.392h621.216c18.144 0.064 36.288 0.064 54.432 0h27.136c0.064 0 0.096 0 0.096 0h0.064c0 0 0 0 0.064 0h0.096c6.432-0.096 12.352-2.4 16.896-6.272 0-0.032 0.064-0.032 0.064-0.032s0 0 0 0c1.024-0.896 2.016-1.888 2.944-2.944v0 0c3.84-4.512 6.272-10.304 6.336-16.704 0.096-5.024-1.28-9.76-3.712-13.792-106.24-185.184-229.344-378.048-356-557.856-4.96-7.072-13.056-11.264-21.696-11.264-74.656 0-150.752-1.088-224.416-2.176-74.816-1.088-150.496-2.176-227.104-2.176-153.28 0-310.24 4.416-471.232 22.208-150.24 21.312-252.192 109.408-287.008 248.032-20.352 80.704-3.84 170.464 44.128 240zM820.736 847.232c-34.784 38.848-83.776 60.256-140.32 59.904-61.984-0.224-122.72-27.296-162.464-72.416-1.664-1.92-3.616-3.392-5.728-4.704l-279.392-274.464c131.68 13.888 267.456-95.392 287.392-234.208 2.368-18.912 2.432-38.016 0.288-56.832l275.36 282.24c1.44 2.336 3.2 4.48 5.408 6.368 2.784 2.24 5.248 4.768 7.808 7.2l8.544 8.736c0.192 0.224 0.544 0.32 0.768 0.512 29.632 32.224 48.352 75.808 52 123.136 4.352 58.016-13.728 114.336-49.664 154.528zM60.128 219.072c39.552-157.152 169.28-198.176 242.304-208.512 237.216-26.208 467.808-22.88 690.912-19.616 69.28 0.992 140.736 2.016 211.328 2.176 113.92 162.432 224.736 335.168 322.496 502.816-21.408-0.032-43.616 0.192-68.064 0.48-1.056 0-2.048 0.096-3.072 0.192h-635.264l-370.080-379.36c-0.768-0.768-1.632-1.408-2.496-2.080-0.768-0.832-1.472-1.76-2.304-2.592-52.672-51.552-121.216-75.84-188.288-66.496-14.496 1.984-24.608 15.296-22.592 29.696 2.016 14.464 15.392 24.512 29.888 22.496 50.592-7.040 103.008 11.872 143.776 51.84 44.384 43.552 66.432 105.088 59.008 164.224-16.032 111.712-130.272 203.2-235.552 188.384-37.824-4.736-72.8-21.536-102.016-48l-11.648-11.424c-7.776-8.224-15.168-16.992-21.856-26.72-39.52-57.312-53.184-131.168-36.48-197.504z" />
<glyph unicode="&#xe90e;" glyph-name="tick" horiz-adv-x="1317" d="M595.675-16.896c-59.758-62.318-156.599-62.318-216.357 0l-335.141 349.477c-59.758 62.318-59.758 163.328 0 225.573 59.685 62.245 156.599 62.245 216.283 0l199.68-208.165c15.141-15.726 39.57-15.726 54.711 0l540.672 563.785c59.758 62.318 156.599 62.318 216.357 0 28.672-29.915 44.763-70.437 44.763-112.786 0-42.277-16.091-82.798-44.763-112.713l-676.206-705.17z" />
<glyph unicode="&#xe90f;" glyph-name="gloves" d="M980.922 662.186c-2.189 20.674-13.277 36.478-29.666 42.277-5.389 1.906-11.57 2.915-17.868 2.915-13.279 0-25.572-4.364-32.877-11.672-5.724-5.719-12.268-15.981-10.944-32.383 2.13-26.335-0.371-101.022-1.864-145.645-0.554-16.55-0.954-28.506-0.957-33.091 0-0.979-0.261-5.861-5.381-5.861-9.091 0-9.091 3.905-9.091 5.374-0.002 23.048-1.779 157.245-6.507 214.4-1.464 17.771-11.674 31.806-27.319 37.544-4.908 1.797-10.121 2.709-15.492 2.709-12.711 0-25.138-5.138-34.095-14.098-7.083-7.081-15.278-19.687-14.122-39.545 0.758-12.802 1.892-30.268 3.094-48.756 2.789-42.677 6.276-139.352 6.276-155.779 0.002-3.457-0.827-5.376-1.322-6.214-0.465-0.785-1.695-2.87-7.548-2.87-10.29 0-10.675 5.359-10.685 5.575-0.008 10.257-1.324 82.215-2.816 115.15-1.856 41.015-4.166 92.063-4.166 113.815 0 19.357-11.185 36.019-29.194 43.49-6.119 2.533-12.512 3.82-18.999 3.82-12.383 0-23.89-4.685-32.392-13.192-9.802-9.802-14.984-23.94-14.984-40.895 0-53.173 2.572-206.762 3.53-223.139-0.117-1.211-1.068-8.108-7.672-8.108-5.466 0-6.482 5.366-6.664 7.662-0.55 7.016-1.163 28.317-1.812 50.871-0.643 22.302-1.307 45.366-2.033 59.538l-0.052 1.014c-1.442 28.107-3.079 59.961-4.889 87.385-1.566 23.903-13.029 41.583-31.448 48.505-5.11 1.923-10.521 2.896-16.083 2.896-13.218 0-26.43-5.632-36.247-15.449-10.943-10.941-16.971-26.264-16.983-43.164 0.008-12.71 2.587-33.268 5.589-57.18 7.888-62.886 15.696-176.211 3.186-213.452-0.169-0.408-0.341-0.853-0.527-1.334-1.211-3.162-3.47-9.047-18.514-20.435-3.867-2.925-7.571-4.29-11.659-4.29-10.871 0-23.693 9.788-36.091 19.254-2.838 2.167-5.655 4.319-8.446 6.357-11.333 8.292-23.052 16.871-36.682 20.189-3.643 0.882-7.521 1.332-11.535 1.332-17.050 0-35.798-8.157-48.926-21.287-11.912-11.91-17.612-26.226-16.053-40.314 1.123-10.1 6.611-24.775 26.375-37.313 10.061-6.38 20.104-12.194 30.73-18.347 41.743-24.201 95.744-59.118 143.411-114.94 1.21-1.829 3.194-8.038 2.068-11.873l-0.104-0.345-40.229-182.798c-0.301-1.446-2.714-14.418 5.885-25.015 6.305-7.765 16.277-11.701 29.648-11.701h429.841c30.713 0 34.329 19.317 34.376 33.851 0.366 110.554-40.632 651.419-43.070 674.562zM403.9 261.633c-1.974 1.131-3.803 2.179-5.51 3.166-10.513 6.087-21.379 12.38-32.091 19.173-35.345 22.424-43.537 51.962-45.272 67.564-2.921 26.412 7.242 53.396 27.872 74.028 20.89 20.888 50.079 33.36 78.082 33.36 7.277 0 14.421-0.837 21.221-2.481 17.825-4.345 31.813-13.095 43.145-21.079 2.995-2.11 6.756-3.321 10.325-3.321 4.079 0 7.754 1.571 10.349 4.419 1.933 2.122 4.118 5.9 3.564 11.86-1.426 15.265-2.080 34.803-2.767 55.487-1.052 31.597-2.245 67.41-6.477 101.141-0.624 4.969-1.161 9.060-1.633 12.66-1.155 8.803-1.923 14.669-2.639 23.395-0.069 9.937-5.21 17.607-7.429 20.913l-0.284 0.425c-29.768 44.797-94.818 216.677-100.545 228.034-7.625 15.067-19.92 26.025-34.62 30.854-5.47 1.797-11.12 2.709-16.789 2.709-13.786 0-26.755-5.508-35.581-15.106-13.317-14.488-15.573-35.439-6.189-57.475 10.725-25.22 23.597-54.312 34.953-79.979l0.509-1.149c5.742-12.977 15.554-33.861 25.040-54.056 9.591-20.418 18.651-39.707 21.323-46.212 0.878-2.137 2.391-7.381-2.49-9.847-1.215-0.614-2.341-0.924-3.35-0.924-3.415-0.002-6.487 3.704-7.158 4.712-6.559 15.102-73.511 153.281-97.491 200.73-7.647 15.133-18.648 25.416-31.816 29.745-4.481 1.472-9.154 2.219-13.893 2.219-13.695 0-26.888-6.211-36.205-17.042-12.701-14.784-15.166-34.701-6.437-51.973 9.767-19.326 29.877-64.025 47.62-103.458 13.513-30.046 44.802-94.878 49.422-104.035 0.092-0.211 2.168-5.165-7.014-9.807-2.078-1.051-3.955-1.603-5.431-1.603-2.453-0.002-4.668 1.921-6.581 5.712-7.411 14.659-47.902 102.518-64.665 141.867-7.894 18.512-14.321 33.573-19.234 44.914-7.919 18.238-20.922 25.793-30.436 28.916-4.797 1.576-9.823 2.374-14.94 2.374-13.237 0-25.794-5.314-34.453-14.579-11.378-12.174-14.16-29.306-7.447-45.823 21.599-53.243 80.513-173.741 90.897-194.288 0.35-0.693 0.873-2.060 0.445-3.422-0.571-1.82-2.749-3.763-6.134-5.475-0.987-0.499-1.866-0.75-2.615-0.75-2.286 0-4.37 2.642-4.832 3.556-2.068 4.086-7.811 14.562-15.76 29.065-21.467 39.163-57.396 104.711-67.377 129.189-6.216 15.23-16.685 21.437-24.372 23.964-3.31 1.088-6.959 1.641-10.844 1.641-13.407 0-28.838-6.718-38.399-16.712-12.010-12.567-14.781-31.672-7.407-51.115 8.256-21.742 215.587-522.893 265.806-621.477 2.803-5.505 10.255-20.127 26.711-20.127 0 0 0 0 0.002 0 5.724 0 12.019 1.772 19.239 5.423l193.104 97.592c5.868 2.96 7.529 10.009 7.901 12.099 1.263 7.13-1.039 14.252-6.482 20.060-39.267 41.899-82.964 66.912-106.441 80.351z" />
<glyph unicode="&#xe910;" glyph-name="devis" d="M704.918 520c0 22.092-17.908 40-40 40h-412c-22.092 0-40-17.908-40-40s17.908-40 40-40h412c22.092 0 40 17.908 40 40zM252.918 400c-22.092 0-40-17.908-40-40s17.908-40 40-40h250.222c22.092 0 40 17.908 40 40s-17.908 40-40 40h-250.222zM346.918 16h-133.778c-44.112 0-80 35.888-80 80v704c0 44.112 35.888 80 80 80h491.778c44.112 0 80-35.888 80-80v-246c0-22.092 17.908-40 40-40s40 17.908 40 40v246c0 88.224-71.776 160-160 160h-491.778c-88.224 0-160-71.776-160-160v-704c0-88.224 71.776-160 160-160h133.778c22.092 0 40 17.908 40 40s-17.908 40-40 40zM935.768 380.856c-46.788 46.788-122.916 46.79-169.674 0.032l-219.606-219.12c-4.664-4.654-8.104-10.386-10.020-16.69l-47.826-157.45c-4.24-13.96-0.546-29.118 9.642-39.56 7.632-7.822 18-12.068 28.634-12.068 3.558 0 7.15 0.476 10.676 1.454l161.45 44.722c6.644 1.84 12.7 5.366 17.58 10.238l219.146 218.734c46.788 46.788 46.788 122.916-0.002 169.708zM667.552 56.464l-81.224-22.5 23.77 78.258 148.178 147.85 56.58-56.58-147.304-147.028zM879.23 267.74l-7.75-7.734-56.57 56.57 7.724 7.708c15.596 15.596 40.972 15.596 56.568 0s15.596-40.972 0.028-56.544zM664.918 720h-412c-22.092 0-40-17.908-40-40s17.908-40 40-40h412c22.092 0 40 17.908 40 40s-17.908 40-40 40z" />
<glyph unicode="&#xe911;" glyph-name="edit" d="M864 960c88.364 0 160-71.634 160-160 0-36.020-11.91-69.258-32-96l-64-64-224 224 64 64c26.742 20.090 59.978 32 96 32zM64 224l-64-288 288 64 592 592-224 224-592-592zM715.578 596.422l-448-448-55.156 55.156 448 448 55.156-55.156z" />
<glyph unicode="&#xe912;" glyph-name="download" d="M512 380.857c22.092 0 40 17.908 40 40v490c0 22.092-17.908 40-40 40s-40-17.908-40-40v-490c0-22.092 17.908-40 40-40zM424.944 216.209c0.068-0.068 0.134-0.136 0.202-0.204 23.402-23.402 54.138-35.098 84.874-35.098 30.712 0 61.42 11.684 84.776 35.042l221.432 220.568c15.652 15.59 15.702 40.916 0.112 56.568-15.59 15.65-40.916 15.702-56.568 0.112l-221.488-220.624c-7.556-7.554-17.6-11.716-28.284-11.716-10.646 0-20.658 4.13-28.204 11.634l-217.31 220.448c-15.508 15.734-40.836 15.914-56.568 0.406s-15.914-40.834-0.406-56.568l217.432-220.568zM984 126.857c-22.092 0-40-17.908-40-40 0-44.112-35.888-80-80-80h-704c-44.112 0-80 35.888-80 80 0 22.092-17.908 40-40 40s-40-17.908-40-40c0-88.224 71.776-160 160-160h704c88.224 0 160 71.776 160 160 0 22.092-17.908 40-40 40z" />
<glyph unicode="&#xe913;" glyph-name="coin" d="M512 950.857c-282.759 0-512-229.241-512-512s229.241-512 512-512 512 229.241 512 512-229.241 512-512 512zM690.673 179.486c-15.381-6.953-31.394-12.853-47.829-17.277-62.367-17.277-124.734-17.909-186.891 2.318-75.009 24.23-124.734 75.43-154.443 147.068-5.689 13.906-9.481 28.444-13.906 42.983h-58.785c-9.903 0-17.699 8.007-17.699 17.699v39.612c0 9.903 8.007 17.699 17.699 17.699h48.672c0 10.956 0 21.281 0 32.237h-48.672c-9.903 0-17.699 8.007-17.699 17.699v39.612c0 9.903 8.007 17.699 17.699 17.699h61.946l2.107 6.11c16.645 52.886 45.3 98.186 89.337 132.319 34.976 27.18 75.43 42.14 118.835 49.093 61.735 9.903 121.574 1.475 179.516-21.281 3.793-1.475 7.374-3.16 10.956-5.267 13.906-8.217 17.488-18.542 11.378-33.501-6.532-15.592-13.063-31.394-20.227-46.775-6.11-13.274-14.538-17.488-28.866-14.328-19.595 4.425-38.769 10.535-58.364 14.538-41.297 8.428-82.384 8.849-122.627-6.953-34.555-13.695-55.625-40.033-69.952-72.902-0.211-0.421-0.211-0.843-0.211-1.264h120.309c9.903 0 17.699-8.007 17.699-17.699v-39.612c0-9.903-8.007-17.699-17.699-17.699h-137.376c-0.211-10.535 0-21.070 0-32.237h137.587c9.903 0 17.699-8.007 17.699-17.699v-39.612c0-9.903-8.007-17.699-17.699-17.699h-125.577c15.17-43.404 39.822-76.905 86.176-91.444 37.083-11.588 74.377-10.956 111.881-3.16 19.384 4.003 38.347 9.903 57.732 14.328 15.17 3.371 23.388-0.632 29.709-14.538 7.164-15.592 13.906-31.394 20.227-47.407 5.9-14.328 2.107-25.916-12.642-32.658z" />
<glyph unicode="&#xe914;" glyph-name="credit-card" d="M934 888.857h-724c-49.628 0-90-40.372-90-90v-90h694c82.706 0 150-67.294 150-150v-324.474c34.844 12.426 60 45.414 60 84.474v480c0 49.628-40.372 90-90 90zM814 648.857h-724c-49.628 0-90-40.372-90-90v-30h904v30c0 49.628-40.372 90-90 90zM210 228.857c-16.552 0-30-13.448-30-30s13.448-30 30-30 30 13.448 30 30-13.448 30-30 30zM330 228.857c-16.552 0-30-13.448-30-30s13.448-30 30-30 30 13.448 30 30-13.448 30-30 30zM0 408.857v-330c0-49.628 40.372-90 90-90h724c49.628 0 90 40.372 90 90v330h-904zM330 108.857c-23.134 0-44.040 9.016-60 23.408-15.96-14.392-36.866-23.408-60-23.408-49.628 0-90 40.372-90 90s40.372 90 90 90c23.134 0 44.040-9.016 60-23.408 15.96 14.392 36.866 23.408 60 23.408 49.628 0 90-40.372 90-90s-40.372-90-90-90zM574 168.857h-60c-16.582 0-30 13.418-30 30s13.418 30 30 30h60c16.582 0 30-13.418 30-30s-13.418-30-30-30zM754 168.857h-60c-16.582 0-30 13.418-30 30s13.418 30 30 30h60c16.582 0 30-13.418 30-30s-13.418-30-30-30z" />
<glyph unicode="&#xe915;" glyph-name="cheque" d="M933.872 589.206h-59.868l-180.196-180.21c-2.286-2.286-4.922-4.19-7.79-5.626l-178.394-89.196c-12.83-6.386-26.598-9.52-40.248-9.52-23.346 0-46.342 9.080-63.624 26.392-27.418 27.418-34.214 69.16-16.874 103.844l77.146 154.316h-374.037c-49.622 0-89.988-40.366-89.988-89.988v-481.935c0-49.622 40.366-89.988 89.988-89.988h843.884c49.622 0 89.988 40.366 89.988 89.988v481.935c0 49.624-40.366 89.988-89.988 89.988zM149.98 349.238h181.976c16.58 0 29.996-13.416 29.996-29.996s-13.416-29.996-29.996-29.996h-181.976c-16.58 0-29.996 13.416-29.996 29.996s13.416 29.996 29.996 29.996zM873.88 47.281h-723.901c-16.58 0-29.996 13.416-29.996 29.996s13.416 29.996 29.996 29.996h723.901c16.58 0 29.996-13.416 29.996-29.996s-13.416-29.996-29.996-29.996zM873.88 167.265h-723.901c-16.58 0-29.996 13.416-29.996 29.996s13.416 29.996 29.996 29.996h723.901c16.58 0 29.996-13.416 29.996-29.996s-13.416-29.996-29.996-29.996zM997.636 924.933c-34.010 34.010-93.358 33.952-127.248 0l-21.22-21.216 127.27-127.258 21.198 21.198c16.99 16.99 26.364 39.604 26.364 63.654 0 24.018-9.374 46.632-26.364 63.622zM515.709 558.45l-75.166-150.36c-5.772-11.542-3.516-25.486 5.624-34.626 5.772-5.772 13.446-8.788 21.208-8.788 4.57 0 9.138 1.026 13.416 3.164l150.36 75.166-115.442 115.444zM806.752 861.301l-254.544-254.52 127.276-127.276 254.538 254.536z" />
<glyph unicode="&#xe916;" glyph-name="pro" horiz-adv-x="910" d="M910.222 88.421c-12.572 75.776-38.912 173.682-93.013 209.863-34.702 23.211-154.34 85.333-207.019 112.469-4.127 2.188-9.022 3.473-14.217 3.473-3.503 0-6.869-0.584-10.007-1.66l0.217 0.065c73.327 53.508 120.431 139.149 120.431 235.792 0 2.825-0.040 5.641-0.12 8.446l0.009-0.412c0 32.484-0.967 58.197-3.072 80.725-0.835 50.296-16.803 96.703-43.532 135.051l0.524-0.793c-39.083 53.532-106.268 79.644-205.369 79.644s-166.286-25.998-205.141-79.246c-26.335-37.515-42.391-83.931-43.233-134.050l-0.003-0.208c-2.105-22.756-3.129-48.412-3.129-81.010-0.071-2.398-0.111-5.219-0.111-8.050 0-96.667 47.128-182.327 119.661-235.257l0.827-0.576c-2.921 1.012-6.288 1.596-9.791 1.596-5.195 0-10.090-1.285-14.384-3.554l0.168 0.081c-50.688-26.226-172.26-89.771-206.791-112.299-60.7-39.822-86.756-170.667-93.298-210.091-0.219-1.35-0.344-2.907-0.344-4.493 0-3.55 0.626-6.953 1.775-10.105l-0.065 0.205c5.632-15.132 65.479-147.172 453.916-147.172s448.341 132.21 453.803 147.228v0c1.073 2.877 1.694 6.2 1.694 9.669 0 1.648-0.14 3.264-0.409 4.835l0.024-0.169zM684.373 0.187c-68.956-13.836-148.227-21.755-229.348-21.755s-160.391 7.919-237.082 23.025l7.735-1.27c4.207 37.955 6.607 81.964 6.607 126.533 0 66.611-5.361 131.97-15.675 195.669l0.932-6.981 5.689 3.129c17.689-53.775 30.043-116.193 34.564-180.771l0.139-2.469 0.683-12.345h392.533l0.683 12.345c4.667 67.089 17.041 129.544 36.314 188.89l-1.555-5.537 5.689-3.072c-9.263-56.434-14.556-121.476-14.556-187.754 0-44.959 2.436-89.349 7.182-133.046l-0.477 5.408zM473.884 351.533l-18.773-48.754-19.115 48.697c-2.331 6.050-6.478 10.969-11.766 14.208l-0.124 0.071c9.298-2.451 19.973-3.858 30.976-3.858s21.678 1.407 31.854 4.051l-0.878-0.194c-5.362-3.344-9.491-8.226-11.82-14.025l-0.070-0.197zM341.845 475.493c-47.457 43.121-77.131 105.085-77.131 173.979 0 2.456 0.038 4.904 0.113 7.341l-0.009-0.357c0 2.219 0 4.494 0 6.713 5.126-3.564 11.285-6.014 17.945-6.862l0.203-0.021c14.503 0.945 27.212 7.911 35.768 18.398l0.072 0.091c35.715 32.706 83.5 52.745 135.964 52.745s100.249-20.040 136.116-52.882l-0.152 0.137c8.612-10.57 21.3-17.535 35.632-18.481l0.151-0.008c6.882 0.87 13.060 3.319 18.341 6.973l-0.137-0.090v-6.713c0.065-2.059 0.102-4.482 0.102-6.912 0-68.905-29.648-130.886-76.883-173.881l-0.189-0.17c-26.881-32.854-67.428-53.658-112.834-53.658-45.38 0-85.906 20.78-112.583 53.344l-0.204 0.257z" />
<glyph unicode="&#xe917;" glyph-name="star-half" horiz-adv-x="475" d="M475.429 932.571v-765.143l-256.571-134.857c-7.429-4-14.857-6.857-22.857-6.857-16.571 0-24 13.714-24 28.571 0 4 0.571 7.429 1.143 11.429l49.143 285.714-208 202.286c-6.857 7.429-14.286 17.143-14.286 27.429 0 17.143 17.714 24 32 26.286l286.857 41.714 128.571 260c5.143 10.857 14.857 23.429 28 23.429v0z" />
<glyph unicode="&#xe918;" glyph-name="star" horiz-adv-x="951" d="M950.857 581.143c0-10.286-7.429-20-14.857-27.429l-207.429-202.286 49.143-285.714c0.571-4 0.571-7.429 0.571-11.429 0-14.857-6.857-28.571-23.429-28.571-8 0-16 2.857-22.857 6.857l-256.571 134.857-256.571-134.857c-7.429-4-14.857-6.857-22.857-6.857-16.571 0-24 13.714-24 28.571 0 4 0.571 7.429 1.143 11.429l49.143 285.714-208 202.286c-6.857 7.429-14.286 17.143-14.286 27.429 0 17.143 17.714 24 32 26.286l286.857 41.714 128.571 260c5.143 10.857 14.857 23.429 28 23.429s22.857-12.571 28-23.429l128.571-260 286.857-41.714c13.714-2.286 32-9.143 32-26.286z" />
</font>
</defs>
</svg>
